+ joshsmithrealestate.com »  :::: Dubbed Zone (Dubbed English in Hindi) » English Movies Dubbed in Hindi » TeamSSX Dubbed Releases
|- Games of Thrones S01E08 480p BRRip x264 [Hindi-Eng] YsB TeaM Fl & SSX


HDFC 10% Off

Games of Thrones S01E08 480p BRRip x264 [Hindi-Eng] YsB TeaM Fl & SSX

0 Members and 1 Guest are viewing this topic.

July 18, 2018, 10:07:53 PM
  • Admin
  • Legend Member
  • ****
  • Topic Author
  • Thank You: 653
  • Reputation: 641
  • Activity:
    6%
  • Country: cn
  • Posts: 2394
  • Topics: 521
  • Join Date: Dec 2011
  • ShareSpark Member
  • Expertises:
  • Bollywood Movies
  • PC Applications
  • PC Games
Games of Thrones S01E08 480p BRRip x264 [Hindi-Eng] YsB TeaM Fl & SSX



:info:


Code: [Select]
General
Complete name               : GOTS01E08TPE BRRip 480p x264 [Hindi-Eng] YsB TeaM Fl & SSX.mkv
Format                      : Matroska
Format version              : Version 4 / Version 2
File size                   : 241 MiB
Duration                    : 58 min 8 s
Overall bit rate            : 580 kb/s
Movie name                  : GOTS01E08TPE BRRip 480p x264 [Hindi-Eng] YsB TeaM Fl & SSX
Encoded date                : UTC 2018-07-15 13:07:27
Writing application         : mkvmerge v8.1.0 ('Psychedelic Postcard') 64bit
Writing library             : libebml v1.3.1 + libmatroska v1.4.2

Video
ID                          : 1
Format                      : AVC
Format/Info                 : Advanced Video Codec
Format profile              : [email protected]
Format settings             : CABAC / 3 Ref Frames
Format settings, CABAC      : Yes
Format settings, ReFrames   : 3 frames
Codec ID                    : V_MPEG4/ISO/AVC
Duration                    : 58 min 8 s
Bit rate                    : 450 kb/s
Width                       : 848 pixels
Height                      : 480 pixels
Display aspect ratio        : 16:9
Frame rate mode             : Constant
Frame rate                  : 23.976 (24000/1001) FPS
Color space                 : YUV
Chroma subsampling          : 4:2:0
Bit depth                   : 8 bits
Scan type                   : Progressive
Bits/(Pixel*Frame)          : 0.046
Stream size                 : 187 MiB (78%)
Title                       : YsB TeaM Fl

Audio #1
ID                          : 2
Format                      : AC-3
Format/Info                 : Audio Coding 3
Codec ID                    : A_AC3
Duration                    : 58 min 8 s
Bit rate mode               : Constant
Bit rate                    : 64.0 kb/s
Channel(s)                  : 2 channels
Channel positions           : Front: L R
Sampling rate               : 48.0 kHz
Frame rate                  : 31.250 FPS (1536 SPF)
Bit depth                   : 16 bits
Compression mode            : Lossy
Stream size                 : 26.6 MiB (11%)
Title                       : YsB TeaM Fl
Language                    : Hindi
Service kind                : Complete Main
Default                     : Yes
Forced                      : Yes

Audio #2
ID                          : 3
Format                      : AC-3
Format/Info                 : Audio Coding 3
Codec ID                    : A_AC3
Duration                    : 58 min 8 s
Bit rate mode               : Constant
Bit rate                    : 64.0 kb/s
Channel(s)                  : 2 channels
Channel positions           : Front: L R
Sampling rate               : 48.0 kHz
Frame rate                  : 31.250 FPS (1536 SPF)
Bit depth                   : 16 bits
Compression mode            : Lossy
Stream size                 : 26.6 MiB (11%)
Title                       : YsB TeaM Fl
Language                    : English
Service kind                : Complete Main
Default                     : No
Forced                      : No

:ss:







:download:









Torrent file attached.



Thanks.
TeaM FL , TeaM SSX, AnantaRdp



Share this topic on FacebookShare this topic on GoogleShare this topic on MySpaceShare this topic on TwitterShare this topic on Yahoo




 

Related Topics

  Subject / Started by Replies Last post
0 Replies
441 Views
Last post July 06, 2018, 11:25:00 AM
by Ðj sαм
0 Replies
407 Views
Last post July 06, 2018, 11:28:09 AM
by Ðj sαм
0 Replies
428 Views
Last post July 06, 2018, 11:31:02 AM
by Ðj sαм
0 Replies
411 Views
Last post July 06, 2018, 11:43:21 AM
by Ðj sαм
0 Replies
499 Views
Last post July 06, 2018, 11:52:58 AM
by Ðj sαм




Back to top
Sitemap