+ joshsmithrealestate.com »  :::: Dubbed Zone (Dubbed English in Hindi) » English Movies Dubbed in Hindi » TeamSSX Dubbed Releases
|- Rampage 2018 BRRip 1080p x264 [Hindi-Tamil-Telugu-Eng] YsB TeaM Fl & SSX


10% SBI and 10% Discount

Rampage 2018 BRRip 1080p x264 [Hindi-Tamil-Telugu-Eng] YsB TeaM Fl & SSX

0 Members and 1 Guest are viewing this topic.

July 18, 2018, 10:06:20 PM
  • Admin
  • Legend Member
  • ****
  • Topic Author
  • Thank You: 653
  • Reputation: 641
  • Activity:
    6%
  • Country: cn
  • Posts: 2394
  • Topics: 521
  • Join Date: Dec 2011
  • ShareSpark Member
  • Expertises:
  • Bollywood Movies
  • PC Applications
  • PC Games
Rampage 2018 BRRip 1080p x264 [Hindi-Tamil-Telugu-Eng] YsB TeaM Fl & SSX



:info:


Code: [Select]
General
Complete name               : Rampage 2018 BRRip 1080p x264 [Hindi-Tamil-Telugu-Eng] YsB TeaM Fl & SSX.mkv
Format                      : Matroska
Format version              : Version 4 / Version 2
File size                   : 2.21 GiB
Duration                    : 1 h 47 min
Overall bit rate            : 2 946 kb/s
Movie name                  : Rampage 2018 BRRip 1080p x264 [Hindi-Tamil-Telugu-Eng] YsB TeaM Fl & SSX
Encoded date                : UTC 2018-07-08 12:03:36
Writing application         : mkvmerge v8.1.0 ('Psychedelic Postcard') 64bit
Writing library             : libebml v1.3.1 + libmatroska v1.4.2

Video
ID                          : 1
Format                      : AVC
Format/Info                 : Advanced Video Codec
Format profile              : [email protected]
Format settings             : CABAC / 4 Ref Frames
Format settings, CABAC      : Yes
Format settings, ReFrames   : 4 frames
Codec ID                    : V_MPEG4/ISO/AVC
Duration                    : 1 h 47 min
Bit rate                    : 2 048 kb/s
Width                       : 1 920 pixels
Height                      : 800 pixels
Display aspect ratio        : 2.40:1
Frame rate mode             : Constant
Frame rate                  : 23.976 (24000/1001) FPS
Color space                 : YUV
Chroma subsampling          : 4:2:0
Bit depth                   : 8 bits
Scan type                   : Progressive
Bits/(Pixel*Frame)          : 0.056
Stream size                 : 1.53 GiB (69%)
Title                       : YsB TeaM Fl

Audio #1
ID                          : 2
Format                      : AC-3
Format/Info                 : Audio Coding 3
Codec ID                    : A_AC3
Duration                    : 1 h 47 min
Bit rate mode               : Constant
Bit rate                    : 224 kb/s
Channel(s)                  : 6 channels
Channel positions           : Front: L C R, Side: L R, LFE
Sampling rate               : 48.0 kHz
Frame rate                  : 31.250 FPS (1536 SPF)
Bit depth                   : 16 bits
Compression mode            : Lossy
Stream size                 : 172 MiB (8%)
Title                       : YsB TeaM Fl
Language                    : Hindi
Service kind                : Complete Main
Default                     : No
Forced                      : Yes

Audio #2
ID                          : 3
Format                      : AC-3
Format/Info                 : Audio Coding 3
Codec ID                    : A_AC3
Duration                    : 1 h 47 min
Bit rate mode               : Constant
Bit rate                    : 224 kb/s
Channel(s)                  : 6 channels
Channel positions           : Front: L C R, Side: L R, LFE
Sampling rate               : 48.0 kHz
Frame rate                  : 31.250 FPS (1536 SPF)
Bit depth                   : 16 bits
Compression mode            : Lossy
Stream size                 : 172 MiB (8%)
Title                       : YsB TeaM Fl
Language                    : Tamil
Service kind                : Complete Main
Default                     : No
Forced                      : No

Audio #3
ID                          : 4
Format                      : AC-3
Format/Info                 : Audio Coding 3
Codec ID                    : A_AC3
Duration                    : 1 h 47 min
Bit rate mode               : Constant
Bit rate                    : 224 kb/s
Channel(s)                  : 6 channels
Channel positions           : Front: L C R, Side: L R, LFE
Sampling rate               : 48.0 kHz
Frame rate                  : 31.250 FPS (1536 SPF)
Bit depth                   : 16 bits
Compression mode            : Lossy
Stream size                 : 172 MiB (8%)
Title                       : YsB TeaM Fl
Language                    : Telugu
Service kind                : Complete Main
Default                     : No
Forced                      : No

Audio #4
ID                          : 5
Format                      : AC-3
Format/Info                 : Audio Coding 3
Codec ID                    : A_AC3
Duration                    : 1 h 47 min
Bit rate mode               : Constant
Bit rate                    : 224 kb/s
Channel(s)                  : 6 channels
Channel positions           : Front: L C R, Side: L R, LFE
Sampling rate               : 48.0 kHz
Frame rate                  : 31.250 FPS (1536 SPF)
Bit depth                   : 16 bits
Compression mode            : Lossy
Stream size                 : 172 MiB (8%)
Title                       : YsB TeaM Fl
Language                    : English
Service kind                : Complete Main
Default                     : No
Forced                      : No

Text
ID                          : 6
Format                      : UTF-8
Codec ID                    : S_TEXT/UTF8
Codec ID/Info               : UTF-8 Plain Text
Duration                    : 1 h 37 min
Bit rate                    : 56 b/s
Count of elements           : 1352
Stream size                 : 40.6 KiB (0%)
Title                       : YsB TeaM Fl
Language                    : English
Default                     : No
Forced                      : No

Menu
00:00:00.000                : en:00:00:00.000
00:12:58.528                : en:00:12:58.528
00:19:56.278                : en:00:19:56.278
00:29:53.291                : en:00:29:53.291
00:40:35.391                : en:00:40:35.391
00:49:10.906                : en:00:49:10.906
01:02:38.171                : en:01:02:38.171
01:10:37.650                : en:01:10:37.650
01:20:10.472                : en:01:20:10.472
01:29:23.608                : en:01:29:23.608
01:39:43.186                : en:01:39:43.186

:ss:







:download:







Torrent file attached.



Thanks.
TeaM FL , TeaM SSX, AnantaRdp



Share this topic on FacebookShare this topic on GoogleShare this topic on MySpaceShare this topic on TwitterShare this topic on Yahoo




 

Related Topics





Back to top
Sitemap